#TITLE:Chip Trip;
#SUBTITLE:Bomberman;
#ARTIST:Chuck Dodgers;
#TITLETRANSLIT:;
#SUBTITLETRANSLIT:;
#ARTISTTRANSLIT:;
#CREDIT:;
#BANNER:Chip Trip.jpg;
#BACKGROUND:Chip Trip-bg.jpg;
#LYRICSPATH:;
#CDTITLE:!Syrus-CDTitle.png;
#MUSIC:Chip Trip.mp3;
#OFFSET:-0.033;
#SAMPLESTART:46.077;
#SAMPLELENGTH:12.000;
#SELECTABLE:YES;
#BPMS:0.000=150.000;
#STOPS:;
#BGCHANGES:;
// cache tags:
#FIRSTBEAT:0.000;
#LASTBEAT:333.000;
#SONGFILENAME:Songs/Music V.I.P ^_^/Chip Trip (Syrus)/Chip Trip.sm;
#HASMUSIC:1;
#HASBANNER:1;
#MUSICLENGTH:133.485;
// end cache tags

//---------------dance-single - ----------------
#NOTES:
     dance-single:
     :
     Hard:
     11:
     1.000,1.000,0.936,0.075,1.000,876.000,125.000,10.000,0.000,0.000:


1000
0100
0000
0010
0000
0100
0000
0010
,
0011
0101
0101
0000
0000
1000
0010
0001
,
0100
0100
0000
0110
0000
0100
0000
0101
,
0110
1010
0110
0000
0000
0100
0110
0110
,
0000
1000
0100
0010
0011
0001
0010
0100
,
1100
0100
0010
1000
0001
0100
0010
0110
,
0000
0001
0010
0100
1010
0100
0010
0100
,
1001
1000
0100
0010
0001
0010
0100
1100
,
1000
0100
0010
0001
0100
0010
1000
0100
1000
0010
0100
0010
1000
0100
0010
0100
,
1000
0100
0010
0001
0010
0100
0010
0001
0010
0100
1000
0100
0010
0001
0010
0100
,
1000
0010
0100
0001
0100
0010
0100
0010
1000
0010
0100
0001
1000
0010
0100
0001
,
0100
0010
1000
0100
0010
0001
1000
0001
1000
0001
1000
0010
0100
0010
0100
0010
,
1000
0100
0010
0001
1000
0100
0010
0001
1000
0100
0010
0001
1000
0100
0010
0001
,
1000
0100
0010
0100
1000
0001
0010
0001
0010
0100
0010
0001
0100
0010
0100
1000
,
0100
0001
0010
0100
0010
0001
0010
0100
1000
0001
0100
0010
0100
0001
1000
0010
,
0100
0010
1000
0100
0010
0001
0100
0010
1000
0001
0010
0100
1000
0100
0010
0100
,
1002
0000
1000
0000
0100
0000
1000
0000
0100
0000
0010
0000
0010
0000
1000
0003
,
2010
0000
0100
0000
0010
3000
0201
0000
0010
0000
1000
0000
0010
0000
0001
0300
,
0120
0000
1000
0000
0100
0000
1000
0000
0001
0000
0100
0000
0001
0000
0100
0030
,
2010
0000
0100
0000
0001
3000
1002
0000
0010
0000
1000
0000
0100
0000
0010
0003
,
0010
1000
0000
0010
0000
0010
0000
0101
,
0110
0101
0110
0000
0000
0010
1000
0100
,
0011
0011
0000
0011
0000
0011
0000
0011
,
0101
1100
1100
0000
0000
0001
0001
0001
,
1000
0100
1000
0100
0010
0001
0010
0001
0010
0100
1000
0100
0010
0001
0100
0010
,
1000
0100
0010
0001
1000
0010
0100
0001
0010
0001
1000
0100
0010
0100
0010
0100
,
1000
0001
0010
0100
0010
0100
1000
0010
0100
0001
0010
0100
1000
0010
1000
0100
,
0010
0001
1000
0100
0010
0100
1000
0001
0100
0010
0100
0001
1000
0010
0100
0001
,
1000
0100
0010
0100
0010
0001
1000
0001
0010
0100
0010
0100
1000
0001
0100
0010
,
0100
0001
1000
0001
1000
0100
0010
0100
0010
0001
1000
0100
0010
0001
0100
0010
,
1000
0100
1000
0100
0010
0001
0010
0001
1000
0100
1000
0001
0010
0001
0010
0100
,
1000
0010
0100
0001
1000
0010
0100
0001
1000
0010
0100
0001
0010
0100
1000
0010
,
0101
0101
0010
0110
0001
0110
1000
0101
,
0110
1010
0110
1000
0100
1001
0101
0011
,
1001
1001
0100
1001
0010
1001
0100
0011
,
1100
0011
0101
0100
0100
1001
0110
1001
,
0000
0001
0010
0100
1100
1000
0100
0010
,
0101
1000
0010
0100
0001
1000
0001
0110
,
0000
0001
0010
0001
1010
1000
0100
1000
,
0101
0001
0010
0100
0010
1000
0001
1001
,
1000
0010
1000
0100
0010
0100
1000
0100
0010
0001
0010
0100
1000
0100
0010
0100
,
1000
0010
0100
0010
1000
0001
0100
0010
1000
0100
0010
0100
1000
0001
0010
0100
,
1000
0100
0010
0001
0100
0010
1000
0010
0100
0001
1000
0100
1000
0100
0010
0001
,
0100
0010
1000
0010
0100
0001
0010
0100
0001
0100
0010
0001
0010
0100
0010
0100
,
1000
0010
1000
0010
0100
0001
0100
0001
0100
0010
0100
0010
1000
0010
1000
0010
,
0100
0010
0100
0001
0100
0001
0100
0010
1000
0001
0100
0010
0100
0010
1000
0100
,
1000
0010
1000
0100
0010
0100
0010
0001
1000
0100
0010
0001
1000
0100
0010
0001
,
1000
0100
0010
0100
1000
0100
0010
0100
1000
0100
0010
0001
0010
0100
0010
0001
,
1010
1010
0100
1010
0010
1010
0100
0101
,
0110
1010
0110
0001
0100
0011
0110
0110
,
1001
1001
1000
0101
0001
1010
0100
1010
,
0110
0101
0110
1000
0100
0011
1100
0110
,
0000
0001
0010
0001
1010
1000
0100
1000
,
0101
0010
1000
0001
0100
0001
0010
0110
,
0000
1000
0010
0100
0011
0001
0100
0010
,
1100
0100
0010
0001
1000
0100
0010
1001
,
0010
0000
0101
0010
0000
0010
0101
0000
1000
0000
1010
0100
0000
0100
1010
0000
,
0001
0000
0011
0100
0000
0100
0011
0000
0001
0000
1100
0001
0000
0001
1100
0000
,
0100
0000
0110
1000
0000
0001
0110
0000
1000
0000
0110
0001
0000
1000
0110
0000
,
0001
0000
1001
0010
0000
0100
1001
0000
0010
0000
1001
0100
0000
0010
1001
0000
,
2001
0000
0001
0000
0000
0000
0001
0000
0000
0000
0001
0000
0000
0000
0001
3000
,
0102
0000
0010
0000
1000
0000
0000
0000
0000
0000
0010
0000
0100
0000
0010
0003
,
1200
0000
1000
0000
0000
0000
0001
0000
0000
0000
0001
0000
0000
0000
0001
0300
,
0120
0000
0100
0000
0100
0000
0000
0000
0000
0000
1000
0000
0001
0000
1000
0030
,
0010
0100
1000
0010
0001
0010
0100
0001
0100
0010
1000
0010
0100
0001
1000
0010
,
0100
0010
0001
0010
0100
0010
0100
0001
1000
0001
1000
0010
1000
0001
1000
0010
,
1000
0100
0010
0001
0100
0001
0010
0100
1000
0010
1000
0100
0010
0001
0100
0010
,
1000
0001
1000
0010
1000
0001
1000
0010
1000
0001
1000
0010
1000
0001
1000
0010
,
1000
0001
1000
0010
0100
0001
0100
0001
0100
0010
0100
0001
1000
0010
1000
0100
,
0010
1000
0010
0100
1000
0100
0010
0001
1000
0010
0100
0001
0100
0001
0010
0100
,
1000
0100
1000
0100
0010
0001
0100
0010
1000
0010
0100
0001
0010
0100
1000
0100
,
0001
0100
1000
0010
0100
0001
0010
0100
0010
0001
1000
0010
0100
0010
0100
0010
,
1001
0100
0010
0100
1001
0010
0100
0010
,
1001
0100
0010
0001
0100
0010
0001
0110
,
0000
0001
1000
0001
0110
1000
0001
1000
,
0110
0001
1000
0001
0010
0100
0010
0101
,
1001
0001
0000
0010
0000
0010
0000
0100
,
1001
0010
0010
0000
0000
0010
0100
0010
,
1010
0010
0000
1000
0000
0001
0000
1000
,
0110
0001
0001
0000
0000
0010
0100
1000
,
1001
0010
0000
0100
0000
1000
0000
0001
,
0101
0001
0100
0000
0000
0100
0001
0010
,
1100
0100
0000
0100
0000
0001
0000
0001
,
1010
0100
0100
0000
0000
0000
0000
0000
;
